Софт-Архив

скачать вадим мулерман торрент

Рейтинг: 4.9/5.0 (89 проголосовавших)

Категория: Торрент-файлы

Описание

Вадим Мулерман - Лада - Золотая коллекция Ретро (2005) APE, Lossless - Pop, Retro

Вадим Мулерман - "Лада" Золотая коллекция Ретро (2005) Год: 2005
Жанр: Pop, Retro
Продолжительность: 01:12:25
Тип рипа: image+.cue
Кодек: APE
Битрейт: Lossless

Трек лист:
1. Лада (В.Шаинский - М.Пляцковский)
2. Тундра (А.Двоскин - В.Петров)
3. От Владивостока до Карпат (Б.Шапиро - М.Светлов)
4. Судьба (А.Бабаджанян - Р.Рождественский)
5. Трус не играет в хоккей (А.Пахмутова - С.Гребенников,Н.Добронравов)
6. Кому-то росы (А.Днепров - В.Харитонов)
7. Звёзды на лугу (А.Днепров - П.Леонидов)
8. Сыну (Б.Власов - Г.Поженян)
9. Северяне ценят мужество (З.Бинкин - Б.Гайкович)
10. Зовёт земля (Е.Мартынов - А.Дементьев,Д.Усманов)
11. До любви один шаг (А.Копфф - Bibik Janusz, русск. текст Ю.Жукова)
12. Скажи, зачем и почему (М.Долган - Е.Кримерман, русск. текст М.Рябинина)
13. Нужна ты мне (Т.Русев - русск. текст Ю.Каменецкого)
14. В тысяча первый раз (Н.Богословский,М.Филипп-Жерар - М.Львовский)
15. День свадьбы (Р.Майоров - О.Писаржевская,А.Монастырёв)
16. Память (Ю.Саульский - П.Леонидов)
17. Без любви (Ю.Саульский - П.Леонидов)
18. Вернулось танго (А.Шульга - В.Харитонов)
19. Ветер с луны (И.Якушенко - Л.Дербенёв)
20. Колдовство (А.Флярковский - Л.Дербенёв)
21. Помоги (С.Каминский - В.Харитонов)

Записи 1968 -1979 гг.


Exact Audio Copy V0.99 prebeta 4 from 23. January 2008
Отчёт EAC об извлечении, выполненном 31. июля 2008, 19:30
Вадим Мулерман / Лада
Дисковод: Optiarc DVD RW AD-5170A Adapter: 0 ID: 0
Режим чтения : Достоверность
Использование точного потока : Да
Отключение кэша аудио : Да
Использование указателей C2 : Нет
Коррекция смещения при чтении : 48
Способность читать области Lead-in и Lead-out : Нет
Заполнение пропущенных сэмплов тишиной : Да
Удаление блоков с тишиной в начале и конце : Нет
При вычислениях CRC использовались нулевые сэмплы : Да
Интерфейс : Встроенный Win32-интерфейс для Win NT/2000
Выходной формат : Внутренние WAV-операции
Формат сэмплов : 44.100 Гц; 16 бит; стерео
TOC извлечённого CD
Трек | Старт | Длительность | Начальный сектор | Конечный сектор
---------------------------------------------------------------------
1 | 0:00.00 | 3:25.05 | 0 | 15379
2 | 3:25.05 | 3:46.19 | 15380 | 32348
3 | 7:11.24 | 2:17.63 | 32349 | 42686
4 | 9:29.12 | 4:16.23 | 42687 | 61909
5 | 13:45.35 | 1:52.44 | 61910 | 70353
6 | 15:38.04 | 3:40.04 | 70354 | 86857
7 | 19:18.08 | 2:55.39 | 86858 | 100021
8 | 22:13.47 | 4:11.16 | 100022 | 118862
9 | 26:24.63 | 2:57.56 | 118863 | 132193
10 | 29:22.44 | 4:11.21 | 132194 | 151039
11 | 33:33.65 | 2:55.34 | 151040 | 164198
12 | 36:29.24 | 4:37.03 | 164199 | 184976
13 | 41:06.27 | 3:22.18 | 184977 | 200144
14 | 44:28.45 | 4:21.14 | 200145 | 219733
15 | 48:49.59 | 3:13.30 | 219734 | 234238
16 | 52:03.14 | 3:28.06 | 234239 | 249844
17 | 55:31.20 | 3:15.69 | 249845 | 264538
18 | 58:47.14 | 3:12.52 | 264539 | 278990
19 | 61:59.66 | 3:43.34 | 278991 | 295749
20 | 65:43.25 | 2:34.35 | 295750 | 307334
21 | 68:17.60 | 4:04.56 | 307335 | 325690
Характеристики диапазона извлечения и сообщения об ошибках
Выбранный диапазон
Имя файла D:\Audio\В.Мулерман - Лада\Вадим Мулерман - Лада.wav
Пиковый уровень 84.8 %
Качество диапазона 99.9 %
CRC копии 153EEDD0
Копирование. OK
Ошибок не произошло
Конец отчёта

скачать вадим мулерман торрент:

  • скачать
  • скачать
  • Другие статьи

    Retro) Вадим Мулерман (из серии Золотая коллекция ретро ) - 2004, APE (image

    sevor · 02-Авг-08 10:02 (9 лет назад)

    Вадим Мулерман (из серии ЗОЛОТАЯ КОЛЛЕКЦИЯ РЕТРО)
    Жанр. Retro
    Год выпуска диска. 2004
    Производитель диска. Россия
    Аудио кодек. APE
    Тип рипа. image+.cue
    Битрейт аудио. lossless
    Продолжительность. 68м 47с
    Трэклист :
    1. Песня северных друзей (А.Островский - Е.Долматовский)
    2. Все равно мы встретимся (А.Бабаджанян - М.Пляцковский)
    3. Не скажу (М.Блантер - Е.Евтушенко)
    4. Забеги на пять минут (Э.Колмановский - И.Шаферан)
    5. Магаданские снегурочки (Р.Майоров - М.Пляцковский)
    6. Чтобы ты сказала-да (З.Бинкин - А.Заурих)
    7. Про верблюда (В.Кудрявцев - Ю.Полухин)
    8. Тот,кто умеет прощать (А.Двоскин - И.Шаферан)
    9. Чуть - чуть (А.Чёрный - М.Либин)
    10. Последнее письмо (С.Туликов - М.Пляцковский)
    11. Надоело (Л.Гарин - М.Пляцковский)
    12. Для чего (Б.Савельев - А.Меснянкин)
    13. Я иду через осень (Б.Шапиро - С.Островой)
    14. Анюта (Б.Ренский - П.Леонидов)
    15. Одна минута (А.Нестеров - М.Пляцковский)
    16. Приснилось мне (А.Бабаджанян - Р.Рождественский)
    17. Запоздалая любовь (Э.Салихов - О.Гаджикасимов)
    18. Шашки подвысь (Е.Птичкин - Е.Карелов)
    19. Маленькая зима (Л.Гарин - М.Рябинин)
    20. Любовь,забывшая меня (Б.Ривчун - В.Гин)
    21. Как ты могла забыть (Р.Майоров - М.Рябинин)
    22. Навсегда (Н.Богословский,М.Филипп-Жерар - М.Львовский)
    23. Танго (Н.Богословский,М.Филипп-Жерар - М.Львовский)
    24. Между мною и тобою (Б.Ривчун - А.Поперечный)
    Доп. информация. Записи 1966 - 1979 гг.
    EAC Log:

    Exact Audio Copy V0.99 prebeta 4 from 23. January 2008
    Отчёт EAC об извлечении, выполненном 1. августа 2008, 20:47
    Вадим Мулерман / Золотая коллекция ретро
    Дисковод: Optiarc DVD RW AD-5170A Adapter: 0 ID: 0
    Режим чтения. Достоверность
    Использование точного потока. Да
    Отключение кэша аудио. Да
    Использование указателей C2. Нет
    Коррекция смещения при чтении. 48
    Способность читать области Lead-in и Lead-out. Нет
    Заполнение пропущенных сэмплов тишиной. Да
    Удаление блоков с тишиной в начале и конце. Нет
    При вычислениях CRC использовались нулевые сэмплы. Да
    Интерфейс. Встроенный Win32-интерфейс для Win NT/2000
    Выходной формат. Внутренние WAV-операции
    Формат сэмплов. 44.100 Гц; 16 бит; стерео
    TOC извлечённого CD
    Трек | Старт | Длительность | Начальный сектор | Конечный сектор
    ---------------------------------------------------------------------
    1 | 0:00.00 | 1:59.54 | 0 | 8978
    2 | 1:59.54 | 2:38.15 | 8979 | 20843
    3 | 4:37.69 | 1:46.05 | 20844 | 28798
    4 | 6:23.74 | 2:29.04 | 28799 | 39977
    5 | 8:53.03 | 2:58.38 | 39978 | 53365
    6 | 11:51.41 | 2:14.31 | 53366 | 63446
    7 | 14:05.72 | 2:28.03 | 63447 | 74549
    8 | 16:34.00 | 3:13.30 | 74550 | 89054
    9 | 19:47.30 | 2:23.19 | 89055 | 99798
    10 | 22:10.49 | 3:51.61 | 99799 | 117184
    11 | 26:02.35 | 2:18.67 | 117185 | 127601
    12 | 28:21.27 | 2:07.21 | 127602 | 137147
    13 | 30:28.48 | 3:27.51 | 137148 | 152723
    14 | 33:56.24 | 2:22.08 | 152724 | 163381
    15 | 36:18.32 | 2:24.45 | 163382 | 174226
    16 | 38:43.02 | 4:40.06 | 174227 | 195232
    17 | 43:23.08 | 3:37.48 | 195233 | 211555
    18 | 47:00.56 | 2:37.11 | 211556 | 223341
    19 | 49:37.67 | 2:49.34 | 223342 | 236050
    20 | 52:27.26 | 3:09.35 | 236051 | 250260
    21 | 55:36.61 | 3:04.15 | 250261 | 264075
    22 | 58:41.01 | 2:42.23 | 264076 | 276248
    23 | 61:23.24 | 3:30.46 | 276249 | 292044
    24 | 64:53.70 | 3:51.51 | 292045 | 309420
    Характеристики диапазона извлечения и сообщения об ошибках
    Выбранный диапазон
    Имя файла D:\Audio\Вадим Мулерман - Золотая коллекция ретро.wav
    Пиковый уровень 64.2 %
    Качество диапазона 99.9 %
    CRC копии B27FB97A
    Копирование. OK
    Ошибок не произошло
    Конец отчёта

    Скачать раздачу по magnet-ссылке · 330.8 MB

    Чтобы скачать .torrent файл необходима регистрация

    Retro) Вадим Мулерман - Голос сердца - 2007, APE (image

    sevor · 14-Сен-08 19:53 (8 лет 11 месяцев назад)

    Вадим Мулерман - "Голос сердца"
    Жанр. Retro
    Год выпуска диска. 2007
    Производитель диска. Россия
    Аудио кодек. APE
    Тип рипа. image+.cue
    Битрейт аудио. lossless
    Продолжительность. 73м 03с
    Трэклист :
    1. Голос сердца (В. Дмитриев - М. Рябинин)
    2. Танго среднерусской полосы (Н. Богословский - М. Львовский)
    3. Детство (В. Шаинский - А. Осипова)
    4. Сердцу не прикажешь (А. Булатов - В. Фельдман. С. Каминский)
    5. Утренний туман (А. Морозов - М. Рябинин)
    6. Трудная любовь (В. Гамалия - О. Гаджикасимов)
    7. Любовь, забывшая меня (Б. Ривчун - В. Гин)
    8. Песня любви (Н. Илютович - С. Капутикян)
    9. Я помню день (Ю. Саульский - А. Поперечный)
    10. Случайность (А. Экимян - Е. Долматовский)
    11. Белая черёмуха (В. Добрынин - А. Жигарев)
    12. Звёзды на лугу (А. Днепров - П. Леонидов)
    13. Камушки (А. Морозов - М. Рябинин)
    14. Ветер с луны (И. Якушенко - Л. Дербенёв)
    15. Король - победитель (А. Дулов - М. Карем)
    16. Приснись мне (Н. Крупышев - Я. Гальперин)
    17. Я вас люблю (В. Добрынин - Н. Олев)
    18. Скажи зачем (М. Долган - Е. Кримерман. русский текст М. Рябинина)
    19. Вернулось танго (А. Шульга - В. Харитонов)
    20. До любви один шаг (А. Копфф - А. Бянуш. русский текст Ю. Жукова)
    21. А любовь остается жить (Б. Власов - С. Островой)
    22. Судьба (А. Бабаджанян - Р. Рождественский)
    EAC Log:

    Exact Audio Copy V0.99 prebeta 4 from 23. January 2008
    Отчёт EAC об извлечении, выполненном 14. сентября 2008, 19:26
    Вадим Мулерман / Голос сердца
    Дисковод: Optiarc DVD RW AD-5170A Adapter: 0 ID: 0
    Режим чтения. Достоверность
    Использование точного потока. Да
    Отключение кэша аудио. Да
    Использование указателей C2. Нет
    Коррекция смещения при чтении. 48
    Способность читать области Lead-in и Lead-out. Нет
    Заполнение пропущенных сэмплов тишиной. Да
    Удаление блоков с тишиной в начале и конце. Нет
    При вычислениях CRC использовались нулевые сэмплы. Да
    Интерфейс. Встроенный Win32-интерфейс для Win NT/2000
    Выходной формат. Внутренние WAV-операции
    Формат сэмплов. 44.100 Гц; 16 бит; стерео
    TOC извлечённого CD
    Трек | Старт | Длительность | Начальный сектор | Конечный сектор
    ---------------------------------------------------------------------
    1 | 0:00.00 | 3:03.42 | 0 | 13766
    2 | 3:03.42 | 3:33.08 | 13767 | 29749
    3 | 6:36.50 | 3:31.67 | 29750 | 45641
    4 | 10:08.42 | 3:39.00 | 45642 | 62066
    5 | 13:47.42 | 3:22.35 | 62067 | 77251
    6 | 17:10.02 | 3:58.40 | 77252 | 95141
    7 | 21:08.42 | 3:11.08 | 95142 | 109474
    8 | 24:19.50 | 2:52.70 | 109475 | 122444
    9 | 27:12.45 | 2:36.12 | 122445 | 134156
    10 | 29:48.57 | 4:03.73 | 134157 | 152454
    11 | 33:52.55 | 3:02.37 | 152455 | 166141
    12 | 36:55.17 | 2:56.33 | 166142 | 179374
    13 | 39:51.50 | 3:25.67 | 179375 | 194816
    14 | 43:17.42 | 3:45.08 | 194817 | 211699
    15 | 47:02.50 | 1:47.00 | 211700 | 219724
    16 | 48:49.50 | 2:44.57 | 219725 | 232081
    17 | 51:34.32 | 3:39.60 | 232082 | 248566
    18 | 55:14.17 | 4:35.33 | 248567 | 269224
    19 | 59:49.50 | 3:15.55 | 269225 | 283904
    20 | 63:05.30 | 2:53.12 | 283905 | 296891
    21 | 65:58.42 | 2:49.13 | 296892 | 309579
    22 | 68:47.55 | 4:15.45 | 309580 | 328749
    Характеристики диапазона извлечения и сообщения об ошибках
    Выбранный диапазон
    Имя файла D:\Audio\В.Мулерман - Голос сердца\Вадим Мулерман - Голос сердца.wav
    Пиковый уровень 100.0 %
    Качество диапазона 99.9 %
    CRC копии 768D7EEA
    Копирование. OK
    Ошибок не произошло
    Конец отчёта

    Скачать раздачу по magnet-ссылке · 368 MB

    Чтобы скачать .torrent файл необходима регистрация

    Вадим Мулерман - Золотая коллекция Ретро (2004) APE, Lossless <Retro

    автор: Админ | 26-02-2015, 23:29 | Просмотров: 250

    Год: 2004
    Жанр: Retro/Pop
    Продолжительность: 01: 08: 47
    Тип рипа: image+.cue
    Кодек: APE
    Битрейт: Lossless
    Треклист:
    1. Песня северных друзей (А.Островский - Е.Долматовский)
    2. Все равно мы встретимся (А.Бабаджанян - М.Пляцковский)
    3. Не скажу (М.Блантер - Е.Евтушенко)
    4. Забеги на пять минут (Э.Колмановский - И.Шаферан)
    5. Магаданские снегурочки (Р.Майоров - М.Пляцковский)
    6. Чтобы ты сказала-да (З.Бинкин - А.Заурих)
    7. Про верблюда (В.Кудрявцев - Ю.Полухин)
    8. Тот, кто умеет прощать (А.Двоскин - И.Шаферан)
    9. Чуть - чуть (А.Чёрный - М.Либин)
    10. Последнее письмо (С.Туликов - М.Пляцковский)
    11. Надоело (Л.Гарин - М.Пляцковский)
    12. Для чего (Б.Савельев - А.Меснянкин)
    13. Я иду через осень (Б.Шапиро - С.Островой)
    14. Анюта (Б.Ренский - П.Леонидов)
    15. Одна минута (А.Нестеров - М.Пляцковский)
    16. Приснилось мне (А.Бабаджанян - Р.Рождественский)
    17. Запоздалая любовь (Э.Салихов - О.Гаджикасимов)
    18. Шашки подвысь (Е.Птичкин - Е.Карелов)
    19. Маленькая зима (Л.Гарин - М.Рябинин)
    20. Любовь, забывшая меня (Б.Ривчун - В.Гин)
    21. Как ты могла забыть (Р.Майоров - М.Рябинин)
    22. Навсегда (Н.Богословский, М.Филипп-Жерар - М.Львовский)
    23. Танго (Н.Богословский, М.Филипп-Жерар - М.Львовский)
    24. Между мною и тобою (Б.Ривчун - А.Поперечный)


    Вадим Мулерман - Золотая коллекция Ретро (2004) [APE|Lossless]<Retro/Pop> скачать через торрент бесплатно

    Информация

    Скачать mp3 альбом Вадим Мулерман 1978 года исполнитель Вадим Мулерман бесплатно через торрент клиент Zona и слушать онлайн

    Тексты песен
    • you gave me something i understand you gave me loving in the palm of
      Paul McCartney - Let Me Roll It
    • the dream police they live inside of my head the dream police they
      Cheap Trick - Dream Police
    • feel the moment it's time to begin see your path into the light hear
      Krypteria - Victoria
    • turned off my brain i don't want the echoes speeding inside my head
      Neverstore - Bullets And Quicksand
    • pain is rising deep inside i've been dying i've been trying call my
      Groove Coverage - Remember
    • dearest love i hope this message finds you well as these endless
      Alesana - The Last Three Letters
    • i don't want to be broken anymore living life in a million pieces i
      Avalon - Alive
    • тогда еще не понял каким быть надо суровым или прикольным свободным
      Каста - Сочиняй Мечты
    • i got struck by curiosity wondering how it would be to see you in an
      Future Idiots - I Love Katy Perry
    • don't have to take my hair out of my ponytail don't have to change my
      Cherish - Superstar
    • hey there lookin' at me tell me what do you see but you quickly turn
      Green Day - At the Library
    • us and them and after all we're only ordinary men me and you god only
      Pink Floyd - Us and Them
    • through the cloudburst now the rain has gone sky is clearing and i
      Nic Chagall - What You Need
    • а может я глуп глуп глуп и не надо в свою душу лезть так вглубь глубь
      Карандаш - Когда я умру
    • vanishing points and midnight horizons herald another night without
      Parkway Drive - Frostbite

    Вадим Мулерман — Вадим Мулерман

    Вадим Мулерман-Зовет Земля

    Вадим Мулерман — Зовет Земля

    Вадим Мулерман-Я Вас Люблю

    Вадим Мулерман — Я Вас Люблю

    Вадим Мулерман — Помоги

    Вадим Мулерман-До Любви Один Шаг

    Вадим Мулерман — До Любви Один Шаг

    Вадим Мулерман-Скажи, Зачем

    Вадим Мулерман — Скажи, Зачем

    Вадим Мулерман-Люблю Тебя

    Вадим Мулерман — Люблю Тебя

    Вадим Мулерман-Сердцу Не Прикажешь

    Вадим Мулерман — Сердцу Не Прикажешь

    Вадим Мулерман-Запоздалая Любовь

    Вадим Мулерман — Запоздалая Любовь

    Вадим Мулерман-Шашки Подвысь